PDA

View Full Version : December 3rd, 2006 - John Digweed + Phil Thompson



Hos
December 20, 2006, 03:36:54 AM
John Digweed Tracklist:
01. Alex Metric - Holding (Dani K?nig Remix) [Four:Twenty Recordings]
02. Milton Jackson & Neil Quigley - Tijuana
03. Mademoiselle Caro & Frank Garcia - Far Away (Jennifer Cardini & Shonky Remix) [Crosstown Rebels]
04. Remo - Mizar [Viva Music]
05. Pier Bucci - Hay Consuelo (Samim Remix) [Crosstown Rebels]
06. Martin H & Nikitas - Fusion [Invent Recordings]
07. Pet Shop Boys - Psychological (Ewan Pearson Dub) [Parlophone Records]
08. Zero 7 - You're My Flame (Justus Kohncke Disko Dub) [Atlantic Records]
09. Nick & John Dalagelis - R2 Units Gone Wild (Chris Fortier Remix) [Audio Therapy]

John Digweed Cuesheet:
PERFORMER "John Digweed"
TITLE "Kiss 100 Mix (03.12.2006)"
FILE "Kiss 100 Mix - 2006-12-03 - John Digweed.mp3" MP3
TRACK 01 AUDIO
INDEX 01 00:00:00
TRACK 02 AUDIO
INDEX 01 08:30:00
TRACK 03 AUDIO
INDEX 01 15:00:00
TRACK 04 AUDIO
INDEX 01 23:52:00
TRACK 05 AUDIO
INDEX 01 27:25:00
TRACK 06 AUDIO
INDEX 01 32:48:00
TRACK 07 AUDIO
INDEX 01 37:21:00
TRACK 08 AUDIO
INDEX 01 45:20:00
TRACK 09 AUDIO
INDEX 01 53:17:00

Phil Thompson Tracklist:
01. Tim Cook - Jericho
02. Dario Nunez & David Vio - Suix
03. Guy Gerber - After Love [Cocoon Recordings]
04. Tim Cook - Dark Echo
05. Everybody In The Family - Y R U Here? (Erphun Vandalis remix)
06. Kenji Takashima - Accident (Moonface Remix) [Futic Records]
07. Greg Kobe - Volt
08. Ummet Ozcan - Chika Good (hertz Remix) [Adult Records]
09. Elton and Snoo - Phone Call Project
10. Ko Kimura - Housmuzik (Demo For Stussy HJK Chapt)
11. Tony Verdi vs Tactik - New Summer EP
12. Ashbury & Haight - In Your Brain [Basswalk Records]

[B]Phil Thompson Cuesheet:


PM jimmy/herre with additions and/or changes to tracklists and cuesheets.