PDA

View Full Version : December 17th, 2006 - John Digweed + Eric Prydz



Hos
December 20, 2006, 03:40:23 AM
John Digweed Tracklist:
01. SCSI-9 - Railway One [Kompakt]
02. Sami Koivikko - Paeaejaeaesae [Spectral Sound]
03. Zombie Nation - Booster [UKW]
04. Marc Romboy - Impact Disco (Williams Remix) [Systematic (3)]
05. Oliver Koletzki - Follow Up (Kiki Remix) [Stil Vor Talent]
06. ID
07. Stephan Bodzin - Papillon [Herzblut]
08. Guy Gerber - Reshuffle
09. Thom Yorke - The Eraser (Satoshi Tomiie Remix)

John Digweed Cuesheet:
PERFORMER "John Digweed"
TITLE "Kiss 100 Mix (17.12.2006)"
FILE "Kiss 100 Mix - 2006-12-17 - John Digweed.mp3" MP3
TRACK 01 AUDIO
INDEX 01 00:00:00
TRACK 02 AUDIO
INDEX 01 08:00:00
TRACK 03 AUDIO
INDEX 01 14:16:00
TRACK 04 AUDIO
INDEX 01 19:23:00
TRACK 05 AUDIO
INDEX 01 26:53:00
TRACK 06 AUDIO
INDEX 01 36:05:00
TRACK 07 AUDIO
INDEX 01 39:36:00
TRACK 08 AUDIO
INDEX 01 46:00:00
TRACK 09 AUDIO
INDEX 01 51:30:00

Eric Prydz Tracklist:
01. ID
02. Goodwill & Tommy Trash - A Swede Thing
03. John Acquaviva Pres. Swen Weber - First Stroke [Craft Music]
04. Tiga - Move My Body (Only4Erol Mix) [Play It Again Sam (PIAS)]
05. Sono - Blame (Bodzin / Huntemann Remix) [PIAS Germany]
06. Dim - Sysiphos [Turbo]
07. Chaim - It Never Ends
08. ID
09. Pryda - Storm

Eric Prydz Cuesheet:


PM jimmy/herre with additions and/or changes to tracklists and cuesheets.