PDA

View Full Version : December 24th, 2006 - John Digweed + Cass



herre
January 4, 2007, 07:55:49 AM
John Digweed Tracklist (BEST OF 2006 PART1):
01. Merz - Mentor (Caged Baby 'Italian Baby Sauce' Remix) [Gr?nland Records]
02. Martin Landsky - 1000 Miles [Poker Flat]
03. Misstress Barbara - Azzurri
04. Lawrence - Along The Wire (Superpitcher Mix) [Ladomat 2000]
05. Pete Heller - Simpler [Phela]
06. RadioSlave - My Bleep (Roman Fl?gel Remix) [Rekids]
07. Paolo Mojo - 1983 (Eric Prydz Remix) [Pryda Friends]
08. Nic Fanciulli - Lucky Heather [Renaissance]

[B]John Digweed Cuesheet:
PERFORMER "John Digweed"
TITLE "Kiss 100 Mix (24.12.2006)"
FILE "Kiss 100 Mix - 2006-12-24 - John Digweed.mp3" MP3
TRACK 01 AUDIO
INDEX 01 00:00:00
TRACK 02 AUDIO
INDEX 01 06:44:00
TRACK 03 AUDIO
INDEX 01 11:24:00
TRACK 04 AUDIO
INDEX 01 17:18:00
TRACK 05 AUDIO
INDEX 01 25:41:00
TRACK 06 AUDIO
INDEX 01 35:41:00
TRACK 07 AUDIO
INDEX 01 43:48:00
TRACK 08 AUDIO
INDEX 01 53:40:00

Cass Tracklist:


Cass Cuesheet:


PM jimmy/herre with additions and/or changes to tracklists and cuesheets.