PDA

View Full Version : July 15th 2007 - John Digweed + Little Mike



Jimmy
July 16, 2007, 11:27:26 PM
Kiss 100 - 2007-07-15 Part 1 - John Digweed

01. Aural Distortion - Plasma [Tsuba Records]
02. Quivver - Dancing In Darkrooms (Quivver Dub)
03. Oliver Moldan - Tuesday Sushi
04. ID
05. Micky Monzza & Joseph Disco - Bounce Baby [Great Stuff Recordings]
06. Criss Source Vs Marc O'Tool - Showtime
07. Oxia - Not Sure [Kompakt Extra]
08. Gutterstylz - Unknown
09. Bedrock - Heaven Scent (Greg Downey Remix)

PERFORMER "John Digweed"
TITLE "Kiss 100 Mix (15.07.2006)"
FILE "Kiss 100 Mix - 2007-07-15 - John Digweed.mp3" MP3
TRACK 01 AUDIO
INDEX 01 00:00:00
TRACK 02 AUDIO
INDEX 01 06:22:00
TRACK 03 AUDIO
INDEX 01 13:52:00
TRACK 04 AUDIO
INDEX 01 19:29:00
TRACK 05 AUDIO
INDEX 01 26:01:00
TRACK 06 AUDIO
INDEX 01 30:56:00
TRACK 07 AUDIO
INDEX 01 38:02:00
TRACK 08 AUDIO
INDEX 01 44:30:00
TRACK 09 AUDIO
INDEX 01 51:32:00

[B]Kiss 100 - 2007-07-15 Part 2 - Little Mike

no t/l available

PM jimmy/herre with additions and/or changes to tracklists and cuesheets.