PDA

View Full Version : September 9th 2007 - John Digweed + Swayzak



herre
September 9, 2007, 09:08:59 AM
Kiss 100 - 2007-09-09 Part 1 - John Digweed
01 - Minz - Chinese Drip [Perspectiv]
02 - Ascii Disko - Hey (Ascii Disko 2007 Remake) [Moonbootique Recordings]
03 - Matthias Heilbronn - Jungle In The City (Matty's Paradox Mix) [Poker Flat Recordings]
04 - Joel Mull - Nocturnal [Audiomatique Recordings]
05 - Cue - Nervous (Nic Fanciulli Remix)
06 - Presslaboys - Goritown [Viva Music]
07 - Dark Place - No String
08 - Kid Dub - Tetris (The Dolphins Remix) [Noir Music]

REM DATE 2007
REM COMMENT made by HERRE FOR [TRACKLISTINGS.NET]
PERFORMER "John Digweed"
TITLE "Kiss 100 Mix (09.09.2007)"
FILE "Kiss 100 Mix - 2007-09-09 - John Digweed.mp3" MP3
TRACK 01 AUDIO
INDEX 01 00:00:00
TRACK 02 AUDIO
INDEX 01 08:39:00
TRACK 03 AUDIO
INDEX 01 15:38:00
TRACK 04 AUDIO
INDEX 01 23:23:00
TRACK 05 AUDIO
INDEX 01 27:42:00
TRACK 06 AUDIO
INDEX 01 33:25:00
TRACK 07 AUDIO
INDEX 01 39:25:00
TRACK 08 AUDIO
INDEX 01 45:30:00
TRACK 09 AUDIO
INDEX 01 49:30:00

Kiss 100 - 2007-09-09 Part 2 - Swayzak

no t/l available

PM jimmy/herre with additions and/or changes to tracklists and cuesheets.