John Digweed tracklist

Freeform Five - Electromagnetic (Tiefschwarz Remix) [Fine Records]
M 1 - Acid The Phenomenen [Reinvent Music]
John Dahlb?ck - My Favourite Stars [Morris Audio]
LXR - Massive Passive (Massive Mix) [BluFin Records]
Lorenzo Govanetti - Unknown [TenX]
DJ Sydney & Ralph Manuel - The Lobby [Kybosh Records]
Ricky Montanari & Davide Ruberto - In The Jungle [Revox]
Flavio Vecchi and Davide Ruberto - Transplant in my head

John Digweed cuesheet

PERFORMER "John Digweed"
TITLE "Live @ Kiss 100 (03.07.2005)"
FILE "Kiss 100 Mix - 2005-07-03 - John Digweed.mp3" MP3
TRACK 01 AUDIO
INDEX 01 00:00:00
TRACK 02 AUDIO
INDEX 01 07:20:00
TRACK 03 AUDIO
INDEX 01 12:10:00
TRACK 04 AUDIO
INDEX 01 17:54:00
TRACK 05 AUDIO
INDEX 01 23:03:00
TRACK 06 AUDIO
INDEX 01 30:38:00
TRACK 07 AUDIO
INDEX 01 37:18:00
TRACK 08 AUDIO
INDEX 01 47:04:00
TRACK 09 AUDIO
INDEX 01 53:48:00

Martin Garcia tracklist

Deep Mariano - Acid pigs fly over me
Guille Quero - Virus
Deep Mariano - Grecia
PLASS - Shine On (original mix)
Plastique Vision - Abstract Habits
Nacca - Toriko (Martin Garcia Remix)
Oliverio - Listen your other voice (Martin Garcia mix)

Martin Garcia cuesheet

TITLE "Kiss100FM (July 03, 2005) Guest Mix"
PERFORMER "Martin Garcia"
TRACK 01 AUDIO
TITLE "Acid pigs fly over me"
PERFORMER "Deep Mariano"
INDEX 00 00:00:00
TRACK 02 AUDIO
TITLE "Virus"
PERFORMER "Guille Quero"
INDEX 00 08:32:10
TRACK 03 AUDIO
TITLE "Grecia"
PERFORMER "Deep Mariano"
INDEX 00 15:38:50
TRACK 04 AUDIO
TITLE "Shine on (original mix)"
PERFORMER "PLASS"
INDEX 00 24:47:35
TRACK 05 AUDIO
TITLE "Abstract habits"
PERFORMER "Plastique Vision"
INDEX 00 31:53:10
TRACK 06 AUDIO
TITLE "Toriko (Martin Garcia remix)"
PERFORMER "Nacca"
INDEX 00 39:52:00
TRACK 07 AUDIO
TITLE "Listen your other voice (Martin Garcia mix)"
PERFORMER "Oliverio"
INDEX 00 50:03:60


Thanks herre, Serbumax85 and n0f8h for JD tracklist and cuesheet
Thanks djpaulbsas and guys from HC board for helping with Martin Garcia tracklist and thanks me for Martin Garcia cuesheet