PDA

View Full Version : November 12th, 2006 - John Digweed + Sasha



Hos
November 24, 2006, 03:40:20 AM
John Digweed Tracklist:

01. Artist Unknown - That Cowgirl Track
02. Cosmo Vitelli - Delayer [I'm A Clich?]
03. Cosmo Vitelli - Delayer (Quiet Village Remix) [I'm A Clich?]
04. Don Mac - Ariba [Superfreq]
05. Depeche Mode - Martyr (Booka Shade Dub) [Mute]
06. Mr Gone - Do 4 Love (Radio Slave remix) [Rebirth]
07. David Ovitch - Inside
08. Rice twins - Poppers [Kompakt]
09. Eric Prydz and Floyd - Proper Education (Eric Prydz dub)

John Digweed Cuesheet:

PERFORMER "John Digweed"
TITLE "Kiss 100 Mix (12.11.2006)"
FILE "Kiss 100 Mix - 2006-11-12 - John Digweed.mp3" MP3
TRACK 01 AUDIO
INDEX 01 00:00:00
TRACK 02 AUDIO
INDEX 01 07:10:00
TRACK 03 AUDIO
INDEX 01 12:36:00
TRACK 04 AUDIO
INDEX 01 19:00:00
TRACK 05 AUDIO
INDEX 01 23:40:00
TRACK 06 AUDIO
INDEX 01 31:18:00
TRACK 07 AUDIO
INDEX 01 35:50:00
TRACK 08 AUDIO
INDEX 01 43:43:00
TRACK 09 AUDIO
INDEX 01 48:45:00

Sasha Tracklist:

01. Loco Dice - El Gallo Negro [Ovum Recordings]
02. Aftificial Latvamaki - It Is Not Now Either
03. ?zg?r Can - On The Whitest Day [Pickadoll Records]
04. Muskat Nuss - Misteek Drive (Robert Babicz Remix) [Precinct]
05. Tom Clarke - Laylines Vol 3 [Morris Audio]
06. Mark August - Warm [Curle Recordings]
07. Dole & Kom - Flight 815 [Elektro.Komfort]
08. Claude VonStroke - Whistler (Audiofly Remix) [Dirtybirt]
09. John Acquaviva & L?tzenkirchen - No Fear (L?tzenkirchen Remix)

[B]Sasha Cuesheet:

PERFORMER "Sasha"
TITLE "Kiss 100 Mix (12.11.2006)"
FILE "Kiss 100 Mix - 2006-11-12 - Sasha.mp3" MP3
TRACK 01 AUDIO
INDEX 01 00:00:00
TRACK 02 AUDIO
INDEX 01 06:20:00
TRACK 03 AUDIO
INDEX 01 14:24:00
TRACK 04 AUDIO
INDEX 01 19:27:00
TRACK 05 AUDIO
INDEX 01 23:00:00
TRACK 06 AUDIO
INDEX 01 29:09:00
TRACK 07 AUDIO
INDEX 01 36:26:00
TRACK 08 AUDIO
INDEX 01 42:32:00
TRACK 09 AUDIO
INDEX 01 48:47:00


Thanks to Jozeg from Tribalmixes for recording the mix
Thanks to herre, herogee, houseystuff and nikolic for tracklists and cuesheets

PM skahound/hos with additions and/or changes to tracklists and cuesheets.